#TITLE:Be starsters!;
#SUBTITLE:Liobreiker2 and SDO Latino;
#ARTIST:Xi Dou Cun Yang Li;
#TITLETRANSLIT:;
#SUBTITLETRANSLIT:;
#ARTISTTRANSLIT:;
#CREDIT:;
#BANNER:bn.png;
#BACKGROUND:bg.jpg;
#LYRICSPATH:;
#CDTITLE:cdtitle.png;
#MUSIC:Be starsters!-XDCYL.ogg;
#OFFSET:-0.708;
#SAMPLESTART:100.000;
#SAMPLELENGTH:12.000;
#SELECTABLE:YES;
#BPMS:0.000=84.032,8.500=168.064,258.000=84.032,265.500=168.064;
#STOPS:;
#BGCHANGES:;
// cache tags:
#FIRSTBEAT:0.500;
#LASTBEAT:362.000;
#SONGFILENAME:Songs/Super Dancer Online/Be starsters!-XDCYL/Be starsters!-XDCYL.sm;
#HASMUSIC:1;
#HASBANNER:1;
#MUSICLENGTH:137.142;
// end cache tags

//---------------dance-single - ----------------
#NOTES:
     dance-single:
     :
     Hard:
     1:
     0.785,0.891,1.000,0.306,0.955,558.000,146.000,42.000,0.000,8.000:
0000
0000
0000
0000
0000
0000
0000
1000
0000
0010
0000
0000
0100
0000
0001
0000
0000
1000
0000
0010
0000
0100
0001
0000
0000
1000
0010
0000
0100
0000
0000
0000
,
0001
0000
0000
0000
1000
0000
0010
0000
0100
0001
0000
0000
1000
0000
0010
0100
0000
0000
0001
0000
1000
0000
0010
0000
0100
0001
0000
0100
0000
0000
1000
0000
,
0100
0000
0000
0000
0000
0020
0000
0000
0000
0000
0000
0000
0000
0000
0000
0000
,
0000
0030
0000
0000
0000
1000
0000
0000
0100
0000
0010
0000
0010
0000
0100
0000
,
0000
0010
0000
0000
0000
1000
0011
1000
0100
0010
0100
0101
0000
1001
0000
0000
,
0110
0000
0110
0000
0000
0001
0000
0001
0000
0000
0000
0010
0000
0010
1000
0000
,
0000
0110
0000
0000
0000
1001
0000
0110
0000
1001
0000
0110
0000
0101
0000
0000
,
0000
1010
0110
1001
0000
0110
0000
1001
,
0000
0000
0110
0000
0000
0000
1001
0000
0010
0001
0100
0000
0101
0000
0000
0000
,
0000
1010
0010
1000
0000
0101
0000
0000
0110
0000
1001
0000
0000
0000
0110
0000
,
0000
1001
0000
0002
0000
0000
0000
0013
,
0010
0000
0100
1000
0100
0000
0020
0000
0000
0000
0000
0000
0000
0030
0100
0000
,
0100
0000
1000
0100
0010
0000
0010
0000
0000
0000
0000
0000
0100
0000
0110
0000
,
0000
2002
0000
0000
0000
0000
0000
0000
,
0000
0000
3003
0000
0110
0000
0000
0110
0000
0000
0000
1001
0000
0000
0110
0000
,
0000
1001
0000
0110
0000
1001
0101
0000
,
1010
0000
0000
0000
0202
0000
0000
0000
0000
0000
0000
0000
0300
0003
0000
1010
,
0000
1010
0000
0000
0101
0000
0010
1100
0000
0000
1001
0000
0110
0000
0000
0000
,
1001
0000
0000
0000
0002
0200
0000
0000
0000
0000
0303
0000
0000
2020
0000
0000
,
0000
0000
3030
0000
0000
0202
0000
0000
0000
0000
0303
0000
0000
1010
0000
1010
,
0000
0000
0000
0000
0000
0101
0000
0101
0000
0000
0000
0000
0000
0220
0000
0000
,
0000
0000
0000
0000
0000
0000
0000
0330
0000
0000
1001
0000
0000
0000
0110
0000
,
0000
1001
0000
0110
0000
1001
0000
0110
,
0000
0000
1001
0000
0000
0000
0110
0000
0000
0000
1001
0000
1001
0000
0000
0110
,
0000
0000
0000
0101
0000
0000
0000
0000
0000
1010
0000
1010
0000
0000
0000
0101
,
0000
0000
0101
0000
0000
0000
1010
0000
0000
0101
0000
0101
0000
0000
1010
0000
,
0001
0100
0000
0000
0000
0101
0000
0000
0000
0101
0000
0000
0000
1010
0000
0000
,
0000
0101
0000
0000
0000
0202
0000
0000
0000
0000
0303
0000
1010
0000
1010
0000
,
0000
0000
0001
0100
0000
0101
0000
0000
1010
0000
0000
0000
0000
0002
0000
0000
,
0000
0000
0000
0000
0000
0000
0000
0003
0010
0000
0010
0100
0000
1000
0100
0010
,
0000
0010
0000
0000
0000
0200
0000
0000
0000
0000
0000
0000
0000
0000
0010
0300
,
0010
0000
1000
0000
0100
0000
0020
0000
0000
0000
0030
0000
0100
0010
0000
0010
,
0000
0100
1000
0000
0100
0000
0010
0000
0010
0001
0000
0001
0000
0000
0011
0100
,
1000
0000
0100
0010
0000
0010
0100
0000
0001
0001
0000
1000
0000
0100
0010
0000
,
0000
0000
0000
0000
0001
0000
0001
0110
0000
1000
0100
0010
0000
0000
0010
0000
,
0000
0100
0000
0001
0010
0000
0111
0000
1000
0110
0000
0000
0010
0000
0100
0000
,
0000
0010
0010
0002
0000
0000
0000
0000
,
0000
0003
0000
0010
0000
0110
1000
0100
0010
0000
0000
0010
0000
0000
0001
0010
,
0000
0100
1000
0100
0000
0020
0000
0000
0000
0000
0000
0000
0000
0000
0000
0000
,
0000
0000
0000
0000
0000
0030
0000
0000
1001
0000
0001
0100
0001
0000
0001
0000
,
0001
0000
0001
0000
0000
0000
0010
1000
0000
0000
0101
0000
0110
0000
0000
1001
,
0000
0000
0110
0000
1001
0000
0010
0100
0101
1000
0000
0000
0000
0000
1001
0000
,
0000
0000
0110
0000
0000
1001
0000
1001
0000
0000
0110
0000
0101
0000
0000
0000
,
1010
0000
0000
0101
0000
0001
0000
0000
1010
0000
0000
1001
0000
0000
0110
0000
,
0000
0000
0000
0101
0000
0000
1010
0000
0000
0000
0101
0000
0000
0000
1001
0000
,
0000
0000
0110
0000
0000
0000
1001
0000
0000
0000
0101
0000
0000
1000
0010
0000
,
0000
0000
0101
0000
0000
0000
1010
0001
1000
0000
0000
0000
0100
0002
0000
0000
,
0000
0000
0000
0000
0000
0000
0003
0010
0100
0000
0010
0000
1000
0000
0100
0010
,
0010
0000
0100
0000
0001
0000
0010
0000
0100
2000
0000
0000
0000
0000
0000
0000
,
0000
3010
0000
0010
0001
0010
0100
1000
0000
0100
0010
0000
0010
0100
0000
0000
,
0002
0010
0000
0103
1000
0000
0020
0000
0000
0000
0000
0000
0000
0000
0030
0001
,
0000
0011
0000
2100
0000
0110
0000
3010
0000
0010
0000
0001
0010
0000
0010
0000
,
0100
1000
0000
0100
0020
0000
0000
0000
0030
0000
0001
0000
0010
0011
0100
1000
,
0100
0010
0000
0010
0000
0001
0000
0000
0000
0000
0010
0010
0000
0100
1000
0100
,
0010
0010
0000
0000
0100
0000
0001
0000
0001
0010
0000
0100
1000
0000
0100
0010
,
0000
0010
0001
0010
0000
0001
0110
1000
0100
0000
0020
0000
0000
0000
0000
0000
,
0000
0000
0030
0000
0010
0000
0011
0000
0100
0000
1000
0110
0000
0001
0010
0000
,
0001
0010
0000
0011
0000
0100
0010
0000
0010
0000
0001
0010
0000
0100
0000
0000
,
1000
0000
0100
0010
0000
0010
0000
0001
0010
0000
0011
0000
0100
1000
0100
0010
,
0000
0010
0000
0000
0010
0000
0001
0010
0000
0100
1000
0100
0010
0000
0010
0000
,
0001
0010
0000
0000
0011
0000
0200
0000
0000
0000
0000
0000
0000
0000
0000
0000
,
0000
0000
0300
0010
0000
0010
0000
0010
0000
0010
0000
0010
0000
0010
0010
0000
,
2000
0000
0000
0100
3010
0000
0020
0000
0000
0000
0000
0000
0000
0000
0000
0000
,
0000
0130
0000
1000
0100
0010
0000
0010
0000
0002
0000
0000
0000
0000
0000
0000
,
0000
0000
0000
0000
0000
0000
0000
0000
0003
0000
0000
0000
0000
0000
0010
0000
0000
0000
0100
0000
0000
0001
0000
0000
1000
0000
0000
0010
0000
0100
0000
0001
,
0000
0100
0000
0010
0000
0000
0000
1000
0000
0000
0000
0100
0000
0010
0000
0010
0000
0000
0000
0001
0000
0100
0000
0000
0010
0000
1000
0000
0000
0100
0000
0001
,
0000
0010
0000
0100
0000
0000
0000
1000
0000
0000
0000
0000
0000
0000
0000
0000
0020
0000
0000
0000
0000
0000
0000
0000
0000
0000
0000
0000
0000
0000
0000
0000
,
0000
0000
2030
0000
,
0000
0000
0000
0000
0010
0000
0000
3000
0001
0000
0001
0000
0000
0000
0010
0000
,
0010
0000
0000
0000
1001
0000
0000
0110
0000
0101
0000
0000
1010
0000
0000
0000
,
1101
0000
0000
0000
0000
0011
0000
0000
0001
0001
0000
0000
0010
0000
0010
0000
,
0000
0000
1000
0000
0000
0010
0000
0010
0000
0100
0001
0000
1000
0000
0000
0000
,
0010
0000
0000
0010
0000
0100
0001
0000
0001
0000
0000
0000
0010
1000
0000
0001
,
0000
0000
0100
0010
0000
1001
0001
0010
0000
0000
0100
0001
0010
0000
1000
0000
,
1001
0110
1001
0101
,
1111
0000
0000
0000
0111
0000
0000
0000
0000
0110
0000
0000
0111
0000
0000
0000
,
1110
0000
0000
0000
0110
0000
0000
0000
0101
0000
0000
0000
1011
0000
0000
0001
,
0100
0010
0000
0010
0000
0000
1000
0000
0010
0000
0000
0100
0001
0000
0011
0000
,
0100
0000
1100
0010
0000
0010
0000
0002
0000
0000
0000
0000
0013
0020
0000
0000
,
0000
0000
0000
0000
0000
0000
0030
0100
1000
0100
0010
0000
0010
0000
0000
0000
,
0000
0100
0000
0000
0010
0000
0000
0000
0001
0000
0001
0010
0010
0000
0100
0000
,
0020
0000
0000
0000
0000
0000
0000
0030
1000
0000
0100
0010
0000
0010
0000
0000
,
0001
0000
0010
0000
0000
0100
1000
0000
0002
0000
0000
0000
0003
0000
0100
0000
,
0200
0000
0000
0000
0300
0000
0000
0101
,
0001
0000
0010
0000
0010
1000
0000
0000
0001
0100
0000
0101
0000
0000
0000
0012
,
0000
0000
0000
0000
0000
0003
0000
0010
0010
0000
0010
0000
0000
0100
1000
0100
,
0000
0010
0000
0010
0000
0200
0000
0010
0000
0001
0000
0010
0000
1000
0010
0000
,
0001
0000
0010
0000
1000
0001
0000
0000
0010
0000
0010
0000
1000
0001
0000
0010
,
0000
0001
0010
0000
1000
0010
0000
0001
0000
0000
0010
1000
0000
0010
0000
0001
,
0000
0001
0000
0010
0000
0010
0000
1000
0000
0010
0010
0000
0000
0001
0001
0000
,
0010
0000
1000
0010
0000
0010
0000
0300
0010
0000
0000
0000
0000
0000
0000
0000
;

//---------------dance-single - ----------------
#NOTES:
     dance-single:
     :
     Medium:
     1:
     0.818,0.923,0.736,0.343,1.000,626.000,101.000,47.000,0.000,11.000:
0000
0000
0000
0000
1000
0000
0000
0010
0000
0100
0000
0000
0010
0100
0000
0001
0000
1000
0000
0010
0000
0100
0000
0001
0000
0100
0010
0000
0100
0000
0000
0000
,
0010
0000
0000
0000
0010
0000
0010
0000
1000
0000
0000
0010
0000
0100
0000
0001
0000
0100
0010
0000
0010
0000
1000
0000
0100
0010
0000
0010
0000
0100
0000
0000
,
0000
0001
0000
0000
0000
0000
0000
0000
0000
0000
0002
0000
0000
0000
0000
0000
0000
0000
0000
0000
0000
0000
0000
0000
0000
0000
0000
0000
0000
0000
0000
0000
,
0000
0000
0000
0000
0000
0000
0000
0000
0000
0000
0000
0000
0000
2003
0000
0000
0000
0000
0000
0000
0000
0000
0000
0000
0000
0000
0000
0000
0000
0000
0000
0000
,
0000
0000
0000
0000
0000
0000
0000
0000
0000
0000
0000
0000
3000
0010
0100
0000
0000
0110
0000
0000
0000
0001
0000
0000
1000
0001
0000
0000
0000
0000
0010
0100
,
0000
0000
0101
0000
0000
0001
0000
0000
0020
0000
0000
0000
0000
0000
0000
0000
0000
0000
0000
0000
0000
0000
0000
0000
0000
0000
0000
0000
0000
0000
0000
0000
,
0000
0000
0000
0000
0000
0000
0000
0030
0000
0000
0101
0000
0000
0001
0000
1010
0000
0000
0000
0001
0100
0000
0000
0101
0010
0000
0000
0000
0000
0000
1001
0000
,
0000
0000
0000
0110
0000
0000
0000
0001
1000
0000
0000
0001
0000
0100
0010
0000
0000
0000
0101
0000
0000
0000
0000
0000
0000
0000
1010
0000
0000
0000
0000
0000
,
0000
0101
0000
0000
0000
0000
0000
0000
0010
1000
0000
0000
0001
0000
0100
0001
0000
0100
0001
0000
0010
0000
1000
0000
0001
0000
0200
0000
0020
0000
0000
0000
,
0000
0000
0000
0000
0000
0330
0000
0000
0000
0001
0100
0000
0001
0000
0100
0000
0010
0000
0000
0000
1001
0000
0000
0000
0000
0010
0000
0100
0000
0001
0100
0000
,
0000
0001
0000
0000
0001
0000
1000
0000
0000
0000
0000
0002
0000
0000
0000
0000
0000
0000
0000
0000
0000
0000
0000
0000
0000
0000
0000
0010
0003
0000
0000
0010
,
0000
0000
0000
0010
0100
0000
1000
0000
0000
0100
0000
0000
0020
0000
0000
0000
0000
0000
0000
0000
0000
0000
0000
0000
0000
0000
0000
0030
0100
0000
0000
0000
,
0100
0000
1000
0000
0100
0000
0010
0000
0000
0000
0010
0000
0000
0000
0000
0002
0000
0000
0000
0000
0000
0000
0000
0023
0000
0000
0000
0000
0000
0000
0000
0000
,
0030
0200
0000
0000
0000
0000
0000
0000
0000
0000
0000
0000
0000
0000
0000
0000
0000
0000
0000
0000
0000
0000
0000
0000
0000
0000
0000
0000
0000
0000
0000
0000
,
0000
0000
0000
0000
0000
0000
0000
0000
0000
0000
0000
0000
0000
0300
0000
0000
0000
0000
1001
0000
0000
0000
0000
0000
0000
0000
0110
0000
0000
0000
0000
0000
,
0000
0000
0101
0000
0000
0000
0000
0000
0000
0000
0000
1010
0000
0000
0000
0000
0000
0000
0001
0100
0000
0000
0100
0000
0010
0000
0000
1000
0000
0001
0000
0000
,
0000
0001
0000
0000
0000
0002
0000
0000
0000
0000
0000
0000
0000
0000
0000
0000
0000
0000
0000
0000
0000
0000
0000
0000
0000
0000
0000
0000
0000
0003
0000
0000
,
0000
0110
0000
0000
0000
0110
0000
0000
0000
0000
0001
1000
0000
0000
0000
0000
0000
0010
0000
0100
0000
0000
0101
0000
0000
0001
0000
0000
0000
0000
0000
0010
,
0000
0000
0000
0000
0000
0000
0000
0020
0000
0000
0000
0000
0000
0000
0000
0000
0000
0000
0000
0000
0000
0000
0000
0000
0000
0000
0030
0200
0000
0000
0000
0000
,
0000
0000
0000
0000
0000
0000
0000
0000
0000
0000
0000
0000
0000
0320
0000
0000
0000
0000
0000
0000
0000
0000
0000
0000
0000
0000
0000
0030
0000
0000
2002
0000
,
0000
0000
0000
0000
0000
0000
0000
3003
0000
0000
0110
0000
0000
0000
0110
0000
0000
0000
0110
0000
0000
0000
0000
0000
0002
0000
0000
0000
0000
0000
0000
0000
,
0000
0000
0000
0000
0000
0000
0000
0000
0000
0000
0000
0000
0000
0000
0000
0000
0000
0000
0003
0000
0110
0000
0000
0000
0000
0000
0000
1001
0000
0000
0000
0000
,
0000
0110
0000
1001
0000
1111
0000
0101
,
0000
0111
0000
1010
0000
1110
0000
0101
,
0000
1011
0000
0110
0000
0111
0000
1011
,
0000
0000
0000
0000
0110
0000
0000
0000
0000
0000
0000
0001
1000
0000
0000
0000
0000
0000
0000
0010
0100
0000
0000
0001
0000
0100
0000
0001
0000
0000
0000
0000
,
0010
0000
0000
0000
0010
0000
0000
0000
0000
0100
0000
1000
0000
0000
0200
0000
0000
0000
0000
0000
0000
0000
0000
0000
0000
0000
0300
0010
0000
0000
0000
0020
,
0000
0000
0000
0000
0000
0000
0000
0000
0000
0000
0030
0100
0000
0000
1000
0000
0100
0000
0000
0000
0000
0010
0000
0000
0000
0000
0000
0000
0000
0000
0000
0010
,
0000
0010
0000
0000
0000
0000
0000
0000
0100
0000
0000
1000
0100
0000
0010
0000
0000
0010
0000
0000
0000
0000
0000
0002
0000
0000
0000
0000
0000
0000
0000
0000
,
0000
0000
0000
0000
0000
0000
0000
0000
0000
0000
0000
0000
0000
0000
0000
0000
0003
0000
0010
0000
0000
0000
0010
0000
0100
0000
0000
1000
0000
0110
0000
0000
,
0000
0001
0000
0010
0000
0000
0001
0010
0000
0000
0000
0020
0000
0000
0000
0000
0000
0000
0000
0000
0000
0000
0000
0000
0000
0000
0000
0000
0000
0030
0100
0000
,
1000
0000
0100
0000
0010
0000
0000
0000
0020
0000
0000
0000
0000
0000
0000
0000
0000
0000
0000
0000
0000
0000
0000
0000
0000
0000
0030
0100
0000
1000
0000
0100
,
0000
0010
0000
0000
0000
0001
0000
0010
0000
0000
0000
0000
0001
0010
0000
0000
0000
0000
0001
0000
0010
0000
0000
0100
1000
0000
0000
0100
0010
0000
0000
0000
,
0010
0000
0000
0001
0000
0010
0000
0000
0000
0001
0010
0000
0000
0100
1000
0000
0010
0000
0000
0000
0010
0000
0000
0000
0020
0000
0000
0000
0000
0000
0000
0000
,
0000
0000
0000
0030
0000
0000
0001
0000
0000
0000
0000
0001
0010
0000
0100
0000
1000
0000
0110
0000
0000
0000
0010
0000
0000
0000
0000
0000
0020
0000
0000
0000
,
0000
0000
0000
0000
0030
0000
0000
0001
0000
0010
0000
0000
0001
0110
0000
1000
0000
0000
0100
0010
0000
0000
0000
0010
0000
0000
0000
0000
0000
0001
0000
0010
,
0000
0000
0000
0000
0000
0000
0010
0000
0000
0000
0010
0000
0000
0100
0000
1000
0000
0000
0200
0000
0000
0000
0000
0000
0000
0000
0000
0000
0000
0000
0000
0000
,
0000
0000
0000
0000
0300
0010
0000
0000
0000
0010
0000
0000
0000
0001
0010
0000
0000
0100
0000
0000
1000
0000
0110
0000
0000
0000
0010
0000
0000
0000
0001
0010
,
0000
0000
0000
0000
0011
0000
0000
0100
0000
1000
0000
0000
0020
0000
0000
0000
0000
0000
0000
0000
0000
0000
0000
0000
0000
0000
0000
0000
0000
0000
0000
0000
,
0000
0000
0000
0000
0000
0000
0000
0000
0000
0000
0030
0000
0000
0000
0001
0000
0000
0000
0001
0000
0000
0001
0000
0000
0000
0001
0000
0000
0000
0001
0000
0001
,
0000
0000
0000
0000
0001
0000
0000
0000
0000
0000
0000
0001
0010
0000
0000
0100
0000
0000
0000
0000
0001
0000
1000
0000
0010
0100
0000
0000
0000
0000
0000
0000
,
1001
0000
0000
0000
0000
0000
0110
0000
0000
0000
0101
0000
0000
0001
1000
0000
0010
0000
0000
0000
0110
0001
0000
0000
0000
0000
0000
0000
1001
0000
0000
0000
,
0000
0000
0000
0010
0100
0000
0000
0001
0100
0000
0000
0000
1001
0000
0000
0000
0000
0000
0000
0101
0000
0000
0000
0100
0001
0000
0000
0000
0000
0000
1010
0000
,
0000
0001
0000
0100
0000
0000
0000
0110
0000
0000
0000
1001
0000
0000
0000
0110
0000
0000
0000
1001
0000
0000
0010
0000
0100
0000
0001
0000
0100
0000
0000
0101
,
0000
0000
0000
0000
0000
1010
0000
0000
0000
0000
0000
0000
0101
0000
0000
0000
0000
0000
0000
0000
0001
1100
0000
0000
0000
0000
0000
0000
0000
0110
0000
0000
,
0000
0000
0000
0000
0000
0111
0000
0000
0000
0000
0000
0000
0000
1010
0000
0000
0000
0000
0000
0000
1101
0000
0000
0000
0000
0000
0000
0000
0000
0111
0000
0000
,
0000
0000
0000
0000
1010
0101
0000
0000
0000
0000
0000
0000
1011
0000
0000
0000
1001
0000
0000
0000
0000
0000
0000
0000
0012
0000
0000
0000
0000
0000
0000
0000
,
0000
0000
0000
0000
0000
0000
0000
0000
0000
0000
0000
0000
0000
0000
0000
0003
0000
0000
0010
0000
0000
0000
0010
0000
0000
1000
0000
0100
0000
0000
0010
0000
,
0010
0000
0000
0000
0000
0001
0000
0000
0000
0011
0000
0000
0000
0001
0010
0000
0100
0000
1000
0000
0200
0000
0000
0000
0000
0000
0000
0000
0000
0000
0000
0010
,
0300
0000
0000
0010
0000
0000
0000
0001
0010
0000
0000
0011
0000
0000
0100
0000
1000
0000
0100
0000
0010
0000
0000
0000
0000
0000
0001
0000
0000
0010
0000
0000
,
0011
0000
0000
0000
0100
1000
0000
0000
0100
0000
0020
0000
0000
0000
0000
0000
0000
0000
0000
0000
0000
0000
0000
0000
0000
0000
0000
0000
0000
0030
0000
0000
,
0001
0000
0010
0000
0000
0000
0011
0100
0000
0000
1000
0100
0000
0000
0010
0000
0000
0010
0000
0000
0001
0000
0010
0000
0000
0000
0001
0010
0000
0000
0100
0000
,
0000
1000
0100
0000
0010
0000
0000
0000
0010
0000
0000
0020
0000
0000
0000
0000
0000
0000
0000
0030
0000
0000
0000
0001
0000
0000
0000
0001
0010
0000
0000
0000
,
0000
0100
0000
1000
0000
0100
0000
0000
0000
0010
0000
0020
0000
0000
0000
0000
0000
0000
0000
0000
0030
0000
0001
0000
0000
0000
0011
0000
0000
0000
0000
0100
,
0000
1000
0000
0000
0100
0000
0010
0000
0000
0020
0000
0000
0000
0000
0000
0000
0000
0000
0000
0000
0000
0030
0000
0000
0001
0000
0000
0000
0011
0000
0000
0000
,
0100
0000
1000
0000
0000
0100
0000
0010
0000
0000
0000
0010
0000
0000
0001
0000
0010
0000
0000
0000
0011
0000
0100
0000
0000
0020
0000
0000
0000
0000
0000
0000
,
0000
0000
0000
0000
0000
0000
0030
0000
0000
0020
0000
0000
0000
0000
0100
0000
0000
0000
0000
1000
0000
0100
0000
0000
0000
0001
0000
0000
0000
0001
0000
0000
,
0000
0001
0000
0000
0000
0100
0000
0000
0001
0000
0000
0000
0000
0000
0000
1000
0000
0000
0001
0000
0000
0000
0001
0000
0000
0000
0100
0000
0001
0000
0000
0000
,
0000
0100
0000
0000
0001
0000
0000
0000
1000
0000
0000
0000
0001
0000
0000
0000
0001
0000
0000
0000
0100
0000
0001
0000
0000
0000
0000
0001
0000
0000
0100
0000
,
0000
1000
0000
0000
0000
0001
0000
0000
0000
0000
0001
0000
0000
0000
0100
0000
0001
0000
0000
0000
0000
0000
0001
0000
0100
0000
1000
0000
0000
0000
0001
0000
,
0000
0000
0100
0000
0000
0001
0000
0000
0000
0000
0000
0002
0030
0000
0000
0000
0000
0000
0000
0000
0000
0000
0000
0000
0000
0000
0000
0000
0000
0000
0000
0000
,
0000
0000
0000
0010
0000
0000
0003
0010
0000
0000
0000
0000
0010
0000
0000
0010
0000
0000
0010
0000
0000
0010
0000
0000
0000
0010
0000
0000
0100
0000
1000
0000
,
0000
0100
0010
0000
0000
0000
0010
0000
0000
0000
0000
0000
0000
0020
0000
0000
0000
0000
0000
0000
0000
0000
0000
0000
0000
0000
0000
0000
0000
0000
0000
0000
,
0000
0030
0000
0001
0000
0000
0000
0001
0100
0000
0000
1000
0000
0100
0000
0000
0020
0000
0000
0000
0000
0000
0000
0000
0000
0000
0000
0000
0000
0000
0000
0000
,
0000
0000
0000
0000
0000
0000
0000
0000
0000
0030
0000
0000
0000
0000
0000
0001
0000
0000
0000
0000
0000
1000
0000
0000
0000
0010
0000
0000
0000
0100
0000
0000
,
0001
0100
0000
0000
0010
0000
0000
1000
0000
0000
0000
0010
0000
0100
0000
0001
0000
0000
0100
0000
0010
0000
0000
1000
0000
0010
0000
0000
0100
0001
0000
0000
,
0100
0000
0010
0000
0000
0000
0000
1000
0000
0000
0000
0000
0020
0000
0000
0000
0000
0000
0000
0000
0000
0000
0000
0000
0000
0000
0000
0000
0000
0000
0000
0000
,
0000
0000
0000
0000
0000
0000
0000
0000
0000
0000
0000
0000
0000
0000
0000
0000
2000
0030
0000
0000
0000
0000
0000
0000
0000
0000
0000
0000
0000
0000
0000
0000
,
0000
0000
0000
0000
0000
0000
0000
0000
0000
0000
0000
0000
0000
0000
0000
3000
0000
0001
0100
0000
0000
0000
0101
0000
0000
0000
0001
0000
0000
0000
0000
0002
,
0000
0000
0000
0000
0000
0000
0000
0000
0000
0000
0000
0000
0000
0003
0000
0000
0000
0010
0000
1000
0000
0010
0000
1001
0000
0000
0100
0001
0000
0010
0000
0000
,
0000
0101
0000
0000
0000
0100
0001
0000
0000
0000
0000
0010
1000
0000
0000
0000
0001
0100
0000
0001
0000
0000
0000
0000
1010
0000
0000
0001
0000
0100
0000
0010
,
0000
0000
0000
0000
1001
0000
0000
0000
0000
0000
0010
0100
0000
0000
0101
0000
0000
0000
0010
1000
0000
0000
0001
0000
0100
0000
0001
0100
0000
0000
0000
0000
,
0000
0101
0000
0000
0000
0000
0000
0000
1010
0000
0000
0000
0000
0001
1000
0000
0000
0001
0110
0000
0000
0000
0000
0000
1001
0000
0000
0000
0110
0000
0000
0001
,
0100
0000
0000
0000
0000
0000
1010
0000
0000
0000
0001
0100
0000
0010
0000
0000
1000
0001
0000
0000
0010
0100
0000
0000
0001
0100
0000
0000
0000
0101
0000
0000
,
0000
0000
0000
0001
0100
0000
0000
0000
0000
0000
1001
0000
0000
0000
0000
0000
0000
0001
0000
0000
0000
0000
0000
0000
0000
0011
0000
0000
0000
0000
0000
0000
,
0000
0000
0011
0000
0000
0000
0000
0000
0000
0011
0000
0000
0000
0000
0000
0000
0000
0000
1100
0000
0000
0000
0000
0000
0000
1100
0000
0000
0000
0000
0000
0000
,
0000
0000
0011
0000
0000
0000
0000
0000
0000
0011
0000
0000
0000
0000
0000
0000
0001
0000
0000
0001
1000
0000
0000
0000
0010
0100
0000
0000
0000
0002
0000
0000
,
0000
0000
0000
0000
0000
0000
0000
0000
0000
0000
0000
0000
0000
0000
0000
0000
0000
0000
0000
0000
0000
0010
0003
0000
0000
0010
0000
0000
0100
0000
0000
1000
,
0000
0100
0010
0000
0000
0000
0010
0000
0000
0100
0000
0000
0000
0001
0000
0000
0000
0000
0001
0000
0010
0000
0000
0100
0000
0000
1000
0000
0000
0020
0000
0000
,
0000
0000
0000
0000
0000
0000
0000
0000
0000
0000
0000
0000
0030
0000
0000
0010
0000
0000
0000
0001
0010
0000
0000
0100
0000
0000
1000
0000
0100
0010
0000
0000
,
0000
0010
0000
0000
0010
0000
0000
0000
0000
0011
0000
0000
0000
0000
0000
0000
0100
0000
0000
1000
0000
0100
0010
0000
0000
0000
0010
0000
0000
0000
0000
0002
,
0000
0000
0000
0000
0000
0000
0000
0000
0000
0000
0000
0000
0000
0003
0010
0000
0000
0000
0010
0000
0000
0100
0000
1000
0000
0100
0010
0000
0000
0000
0010
0000
,
0000
0000
0001
0000
0010
0000
0000
0000
0011
0000
0000
0100
0000
1000
0000
0000
0000
0020
0000
0000
0000
0000
0000
0000
0000
0000
0000
0030
0000
0000
0010
0000
,
0000
0000
0020
0000
0000
0000
0000
0000
0000
0000
0000
0000
0000
0000
0000
0000
0000
0000
0000
0000
0000
0000
0000
0000
0000
0130
0000
0000
0000
0000
0100
0000
,
1000
0000
0000
0100
0000
0010
0000
0000
0000
0000
0000
0011
0000
0000
0000
0000
0001
0000
0010
0000
0000
0000
0100
0000
1000
0000
0000
0000
0000
0020
0000
0000
,
0000
0000
0000
0000
0000
0000
0000
0000
0000
0000
0000
0000
0000
0000
0000
0000
0000
0030
0000
0000
0000
0001
0000
0000
0000
0011
0000
0000
0000
0100
0000
1000
,
0000
0100
0010
0000
0000
0000
0010
0000
0000
0000
0000
0010
0000
0000
0000
0200
0000
0000
0000
0010
0000
0000
0000
0001
0000
0000
0000
0000
1000
0000
0010
0000
,
0000
0000
0001
0000
0000
0000
0010
0000
0000
0000
0010
0000
0000
0000
0000
1000
0000
0001
0000
0000
0000
0000
0010
0000
0000
0000
0001
0000
0000
0010
0000
0000
,
0000
0000
1000
0001
0000
0000
0000
0010
0000
0000
0000
0001
0000
0000
0000
0010
0000
0000
0000
1000
0001
0000
0000
0010
0000
0000
0000
0001
0000
0000
0000
0010
,
1000
0000
0000
0000
0001
0000
0000
0000
0000
0001
0000
0000
0010
0000
0000
0000
0000
0000
1001
0000
0000
0000
0010
0000
0000
0000
0010
0000
0000
0000
0010
0001
,
0000
0000
0000
0010
0000
0000
0000
0000
1000
0000
0010
0000
0000
0310
0000
0000
0000
0000
0000
0000
0000
0000
0000
0000
0000
0000
0000
0000
0000
0000
0000
0000
;
